Free Websites at Nation2.com

Bun Creatinine Ratio 28 1080p

Bun Creatinine Ratio 28 1080p

bun creatinine ratio 28 1080p

 

Bun Creatinine Ratio 28 1080p >>> http://shorl.com/pafrudrydipuki

 

 

 

 

 

 

 

 

 

 

 

 

 

 

 

 

 

 

 

 

 

 

 

 

 

 

 

 

 

 

 

 

 

 

 

 

 

 

 

 

 

 

 

 

 

 

 

 

 

 

 

 

 

 

 

 

 

Bun Creatinine Ratio 28 1080p, actividad paranormal 4 1080p descargar

 

55a97c10fc

Alibaba.com Site: International - Espaol - Portugus - Deutsch - Franais - Italiano - - P - - - - - Trk - Nederlands - ting Vit - Indonesian - Alibaba Group Taobao Marketplace Tmall.com Juhuasuan AliExpress Alibaba.com International 1688.com Alimama Alitrip Alibaba Cloud Computing YunOS AliTelecom HiChina Autonavi UCWeb Umeng Xiami TTPod Diandianchong DingTalk Alipay Product Listing Policy - Intellectual Property Policy and Infringement Claims - Privacy Policy - Terms of Use 1999-2016 Alibaba.com. Latest Searches arrival hdrip 12 hours ago RHJ 12 hours ago redhot 12 hours ago redhotjam 12 hours ago ebod 450 12 hours ago kin8 12 hours ago kin8patu 12 hours ago choice awards 12 hours ago kinpatu 12 hours ago Vince Vaughns 12 hours ago music box 12 hours ago gotham s3e14 12 hours ago WORKSHOP PLAN 12 hours ago epub converter 12 hours ago jeanne dielman 12 hours ago ia writer 402 12 hours ago jauja 12 hours ago ia writer 12 hours ago near death 12 hours ago film italia 12 hours ago NewGirlS06E14 12 hours gobandit race 1080p or 1080i amelia earhart 12 hours ago amelia earhart 12 hours ago kate jerome 12 hours ago bobbers 12 hours ago sims toddler 12 hours ago birds 1080p jyk 12 hours ago shop plans 12 hours downscale 1080p to 720p macaroni plans 12 hours ago millwork 12 hours ago . Oh no! Pinterest won't work unless you turn on JavaScript. Free Download . Download Video MP4 (360p). Torrent: Sausage Party (2016) 1080P HEVC BLUURY Sausage Party (2016) 1080P HEVC BLUURY 2016-11-09 21:30:01 in Movies. Pinterest The worlds catalogue of ideas Search . Uh oh! Something went wrong. Video Tag : Download , Mobile 2g download ,128kbps 64kbps 320kbps , 3gp video download, mp4 video download, hindi video download, bengali video download, tamil video download, telugu video download, kannada video download, . Any user promoting videos containing Religious Hatred contents will be banned and reported to [emailprotected] breaking bad s05e09 720p web-dl with Google Close . Download Video MP4 (720p). Video Description : . Torrent Files Sausage Party (2016) 1080P HEVC BLUURY (Size: 790.7 MB) Sausage Party (2016) 1080P HEVC BLUURY 790.7 MB Torrent Description download seed and enjoy ,and not webseeded so I need little help with the seeding and take little longer than webseed torrents thank you Screens Mediainfo Video ID : 1 Format : HEVC Format/Info : High Efficiency Video Coding Format profile : [emailprotected]Main Codec ID : VMPEGH/ISO/HEVC Duration : 1 h 28 min Bit rate : 1 041 kb/s Width : 1 920 pixels Height : 1 080 pixels Display aspect ratio : 16:9 Frame rate mode : Constant Frame rate : 23.976 (24000/1001) FPS Color space : YUV Chroma subsampling : 4:2:0 Bit depth : 8 bits Bits/(Pixel*Frame) : 0.021 Stream size : 661 MiB (84%) Writing library : x265 2.1+20-c64393b415ad:[Windows][MSVC 1900][64 bit] 8bit Encoding settings : wpp / ctu=64 / min-cu-size=8 / max-tu-size=32 / tu-intra-depth=1 / tu-inter-depth=1 / me=3 / subme=3 / merange=57 / rect / amp / max-merge=2 / temporal-mvp / no-early-skip / rskip / rdpenalty=0 / no-tskip / no-tskip-fast / no-strong-intra-smoothing / no-lossless / no-cu-lossless / no-constrained-intra / no-fast-intra little busters sub indo 720p open-gop / no-temporal-layers / interlace=0 / keyint=250 / min-keyint=23 / scenecut=40 / rc-lookahead=25 / lookahead-slices=0 / bframes=8 / bframe-bias=0 / b-adapt=2 / ref=4 / limit-refs=2 / limit-modes / weightp / weightb / aq-mode=3 / qg-size=32 / aq-strength=1.00 cars hd wallpapers 1080p for pc bmw 3 cbqpoffs=0 / crqpoffs=0 / rd=4 / psy-rd=1.00 / rdoq-level=2 / psy-rdoq=0.00 / log2-max-poc-lsb=8 / limit-tu=0 / no-rd-refine / signhide / deblock=2:2 / sao / no-sao-non-deblock / b-pyramid / cutree / no-intra-refresh / rc=crf / crf=27.0 / qcomp=0.60 / qpmin=0 / qpmax=69 / qpstep=4 / ipratio=1.40 / pbratio=1.30 Default : Yes Forced : No Color range : Limited Color primaries : BT.709 Audio ID : 2 Format : Opus Codec ID : AOPUS Duration : 1 h 28 min Bit rate : 161 kb/s Channel(s) : 6 channels Channel positions : Front: L C R, Rear: L R, LFE Sampling rate : 48.0 kHz Frame rate : 50.000 FPS (960 spf) Compression roku 2 xs 1080p streaming player xbmc repositories : Lossy Stream size : 102 MiB (13%) Default : Yes Forced : No Text #1 final flight of the osiris 720p vs 1080i : 3 Format : PGS Muxing mode : zlib Codec ID : SHDMV/PGS Codec ID/Info : Picture based subtitle format used on BDs/HD-DVDs Duration : 1 h 27 min Bit rate : 22.4 kb/s Count of elements : 3415 Stream size : 14.0 MiB (2%) Language : English Default : No Forced : No Text #2 ID : 4 Format : PGS Muxing mode : zlib Codec ID : SHDMV/PGS Codec ID/Info : Picture based subtitle format used on BDs/HD-DVDs Duration : 1 h 20 min Bit cheap 32 inch led tv 1080p : 20.9 kb/s Count of elements : 2714 Stream size : 12.0 MiB (2%) Language : English Default : No Forced : No Menu carl zeiss cinemizer oled 720p 3d blu-ray : en:00:00:00.000 00:04:24.264 : en:00:04:24.264 00:10:19.118 : en:00:10:19.118 00:15:27.843 : en:00:15:27.843 00:19:32.171 : en:00:19:32.171 00:24:53.700 : en:00:24:53.700 00:29:32.937 : en:00:29:32.937 00:35:44.141 : en:00:35:44.141 00:41:55.262 : en:00:41:55.262 00:48:18.520 : en:00:48:18.520 00:54:45.907 : en:00:54:45.907 00:59:54.507 : en:00:59:54.507 01:03:47.073 : en:01:03:47.073 01:08:01.285 : en:01:08:01.285 01:11:55.811 : en:01:11:55.811 01:16:03.809 : en:01:16:03.809 Related Torrents torrent name size age seed leech Pirate Radio 2009 720p BluRay H264 AAC-RARBG 0 Posted by TDCc in Movies 1.63GB 7 minutes 499 365 [-11][[&& Onegai Teacher&Onegai Twins][BDRIP][960X720][X264-10bitAAC] 0 Posted by TDCc in Movies 8.68GB 7 minutes 491 267 The Curse Of King Tuts Tomb 2006 720p BluRay H264 AAC-RARBG 0 Posted by TDCc in Movies 2.06GB 7 minutes 328 319 Lan Kwai Fong 3 2014 DVDRip x264 AC3-VNQt 0 Posted by TDCc in Movies 1.11GB 7 minutes 123 481 Super 8(2011) BDRip 720p[Hurtom] mkv 0 Posted by TDCc in Movies 4.24GB 7 minutes 763 434 Sharing Widget Download torrent 790.7 MB seeders:1214 leechers:386 Sausage Party (2016) 1080P HEVC BLUURY html bbcode To share this torrent use the raspberry pi xbmc 1080p master audio below and insert it into comments, status messages, forum posts or your signature. Info Hash: F2F28E6D5BBEC2AD394BBCD61FE33FD5A72EAE72 Download Fast Safe Anonymousmovies, software, shows. Verified. Download Video . .. Download Video 3GP (240p). Upload Login . Related videos. 404 Not Found! :( We couldn't find the page you requested Copyright 2017, All Rights Reserved By using this site you are agreeing to our terms of service.. Last updated On - 25 January 2017 - 7:29 am Music Partner5HD.in - OdiaMuzic.net - Videos Home ^Top About me Disclaimer 2017 Music.OdiaMuzic.net . Music.OdiaMuzic.net . 1 Turn on Javascript 2 Clear your cache and cookies 3 Make sure youre up-to-date 4 Try a different browser Still having trouble? Get help . All rights reserved. Alibaba.com English .